Documenta Castellano | Defendor | Incorporated
메뉴
 
작성일 : 17-10-13 01:28
[한글] 아스트로 보이 : 아톰의 귀환 Astro Boy 2009 (1080p Bluray x265 HEVC 10bit AAC 5.1 Tigole) [UTR]
글쓴이 : 익명
조회 : 9  
다운로드 : [한글] 아스트로 보이 : 아톰의 귀환 Astro Boy 2009 (1080p Bluray x265 HEVC 10bit AAC 5.1 Tigole) [UTR].torrent (36.8k)
[한글] 아스트로 보이 : 아톰의 귀환 Astro Boy 2009 (1080p Bluray x265 HEVC 10bit AAC 5 토렌트 torrent

 

Astro Boy 2009 in 1080p, encoded with x265 in HEVC and AAC 5.1 English, with subtitle! 
Encoded using the time consuming 2 pass, 10 bit color at 3077 kbps, from a Blu-ray source, for the highest quality possible. 



Media Information

Code:

General 
Format : Matroska 
Format version : Version 4 / Version 2 
File size : 2.33 GiB 
Duration : 1 h 33 min 
Overall bit rate : 3 555 kb/s 
Movie name : Astro Boy 
Encoded date : UTC 2017-09-16 17:47:14 

Video 
ID : 1 
Format : HEVC 
Format/Info : High Efficiency Video Coding 
Format profile : Main [email protected]@Main 
Codec ID : V_MPEGH/ISO/HEVC 
Duration : 1 h 33 min 
Bit rate : 3 077 kb/s 
Width : 1 920 pixels 
Height : 816 pixels 
Display aspect ratio : 2.35:1 
Frame rate mode : Constant 
Frame rate : 23.976 (24000/1001) FPS 
Color space : YUV 
Chroma subsampling : 4:2:0 
Bit depth : 10 bits 
Bits/(Pixel*Frame) : 0.082 
Stream size : 2.02 GiB (87%) 

Audio 
ID : 2 
Format : AAC 
Format/Info : Advanced Audio Codec 
Format profile : LC 
Codec ID : A_AAC 
Duration : 1 h 33 min 
Bit rate : 469 kb/s 
Channel(s) : 6 channels 
Channel positions : Front: L C R, Side: L R, LFE 
Sampling rate : 48.0 kHz 
Frame rate : 46.875 FPS (1024 spf) 
Compression mode : Lossy 
Delay relative to video : 20 ms 
Stream size : 314 MiB (13%) 
Language : English 
Default : Yes 
Forced : No 

Text 
ID : 3 
Format : VobSub 
Muxing mode : zlib 
Codec ID : S_VOBSUB 
Codec ID/Info : Picture based subtitle format used on DVDs 
Duration : 1 h 24 min 
Bit rate : 11.9 kb/s 
Count of elements : 1312 
Stream size : 7.21 MiB (0%) 
Language : English 
Default : No 
Forced : No 

메트로 시티 최고의 과학자, ‘텐마 박사’는 로봇 시험 가동 중 사고로 아들 ‘토비’를 잃는다. 자신의 실수로 아들을 잃고 괴로워하던 ‘텐마 박사’는 ‘토비’의 DNA를 이식해 인간의 감성과 하이 테크놀로지가 결합된 최고의 로봇 ‘아스트로’를 만들어낸다. 하지만 ‘아스트로’의 존재를 알게 된 독재자 ‘스톤 총리’는 ‘아스트로’의 생명 에너지를 차지하기 위해 군대를 동원해 공격을 시작한다. 
 불의의 공격을 받고 메트로 시티 아래로 떨어진 ‘아스트로’. ‘아스트로’는 그 곳에서 값나가는 부품을 얻기 위해 로봇을 사냥하는 ‘코라’ 일행과 친구가 되지만 아이들의 대부, ‘햄에그’의 계략으로 상대를 죽여야만 끝나는 로봇 서바이벌에 나가게 된다. 한편, 대결 중인 ‘아스트로’의 에너지를 감지한 ‘스톤 총리’는 ‘아스트로’를 죽이기 위해 최강의 전투 로봇 ‘피스키퍼’를 가동시키는데……
171011 171012 171013 [한글] 아스트로 보이 : 아톰의 귀환 Astro Boy 2009 (1080p Bluray x265 HEVC 10bit AAC 5 무료보기, magnet, 다운

 

Total. 12,864
번호 제   목 글쓴이 날짜
12864 [한글] 태평륜 피안 太平輪 彼岸 The.Crossing.2.2015.720/1080p.BluRay.x264.DTS-WiKi+1080p.BluRay.x264.DD5.1-FGT 익명 04:28
12863 [한글] 태평륜 太平輪 The.Crossing.I.2014.720/1080p.BluRay.x264.DTS-WiKi+1080p.BluRay.AVC.TrueHD.7.1.Atmos-RARBG+REMUX 익명 03:28
12862 [한글] 리메이닝 The.Remaining.2014.LIMITED.1080p.BluRay.x264-GECKOS 익명 03:28
12861 [한글] 릴팅 Lilting.2014.LIMITED.1080p.BluRay.x264-GECKOS 익명 03:28
12860 [한글] 랜드 오브 데드 Land.of.the.Dead.2005.720p.x264-x0r 익명 10-17
12859 [한글] 릴팅 Lilting.2014.1080p.BluRay.H264.AAC-RARBG 익명 10-17
12858 [한글] 나이트메어 6 - 프레디 죽다 Freddys.Dead.The.Final.Nightmare.1991.720p.BluRay.H264.AAC-RARBG 익명 10-17
12857 [한글] 리메이닝 The.Remaining.2014.1080p.BluRay.H264.AAC-RARBG 익명 10-17
12856 [한글] 언셀러 Good.People.2014.1080p.BluRay.H264.AAC-RARBG 익명 10-17
12855 [한글] 내가 잠들기 전에 Before.I.Go.To.Sleep.2014.1080p.BluRay.H264.AAC-RARBG 익명 10-17
12854 [한글] 라이프 오브 크라임 Life.of.Crime.2014.1080p.BluRay.H264.AAC-RARBG 익명 10-17
12853 [한글] 올드 조이 Old.Joy.2006.720p.BluRay.H264.AAC-RARBG 익명 10-17
12852 [한글] 웬디 앤 루시 Wendy.and.Lucy.2008.720p.BluRay.H264.AAC-RARBG 익명 10-17
12851 [한글] 플래닛 바이러스 The.Last.Days.on.Mars.2013.1080p.BluRay.H264.AAC-RARBG 익명 10-17
12850 [한글] 로닌 Ronin.1998.REMASTERED.BluRay.1080p.x264.AAC.5.1.-.Hon3y 익명 10-17
12849 [한글] 키즈 Kids.1995.1080p.BluRay.HEVC.EAC3-SARTRE 익명 10-17
12848 [한글] 도미노 Domino 2005 (1080p Bluray x265 HEVC 10bit AAC 5.1 Tigole) [UTR] 익명 10-17
12847 [무] 가디안 The.Guardian.1990.1080p.BluRay.H264.AAC-RARBG 익명 10-17
12846 [한글] 어니스트 캠프로 가다 Ernest.Goes.to.Camp.1987.BluRay.1080p.x264.AAC.-.Hon3y 익명 10-17
12845 [한글] 웨이팅 Waiting.2005.720p.BluRay.x264-x0r 익명 10-17
12844 [한글] 언셀러 Good.People.2014.LIMITED.1080p.BluRay.x264-GECKOS 익명 10-17
12843 [한글] 킹 아더 King.Arthur.2004.EXTENDED.DC.720+1080p.BrRip.x264.YIFY 익명 10-17
12842 [한글] 스시 장인: 지로의 꿈 Jiro.Dreams.of.Sushi.2011.1080p.BluRay.x264.AAC.5.1-POOP 익명 10-17
12841 [한글] 헬프 The Help 2011 BluRay 1080p AVC DTS-HD MA5.1-CHDBits 익명 10-17
12840 [한글] 내가 잠들기 전에 Before.I.Go.To.Sleep.2014.LIMITED.1080p.BluRay.X264-GECKOS 익명 10-17
 1  2  3  4  5  6  7  8  9  10    
 
torrentdream.com | fulcrum-studios.com | tnori.kr | yukatagirl.com | hlive.co.kr | navidisk.com | 0service.com | donghaebada.com | 8xom.com
Copyright ⓒ http://amortgage.us. All rights reserved.